* Dettagli Torrent   globale  | Commenti (0) 


- Love.Victor.S03.ITA-ENG.1080p.DSNP.WEB-DL.DDP5.1.H.264-gattopollo -


Download via torrent:
Categoria bittorrent SerieTv
Descrizione
[center]
[/center]
[center]Obi-Wan.Kenobi.S01.iTALiAN.MULTi.HDR.2160p.WEB.h265-MeM.GP.mkv[/center]
[center].:: TITOLO ::.[/center]

[center]Love.Victor.S03.ITA-ENG.1080p.DSNP.WEB-DL.DDP5.1.H.264-gattopollo[/center]

[center][/center]

[center].:: INFO SERIE ::.[/center]

[center]
Genere: Drammatico , Commedia, Sentimentale
Nazionalità: Eng
Anno: 2022
Durata: 33 min
Stagione: 3
Episodi: 8
IMDb


.:: TRAMA ::.


Segui la storia di Victor, un nuovo studente alla Creekwood High School che si trova nel viaggio alla scoperta di sé per affrontare le sfide a casa e lottare con il suo orientamento sessuale.




.:: SCREENSHOT ::.

 [/center]


[center].:: INFO TECNICHE ::.

Sorgente Video: DSNP
Sorgente Audio:  DSNP
Risoluzione: 1920x1080, H.264
Audio 1: ITA E-AC3  6ch @256Kb/s
Audio 2: ENG E-AC3 6ch @256kb/s
Sottotitoli: ITA FULL, ENG SDH, etc



.:: MEDIAINFO ::.


Code

General
Unique ID                                : 224712339872325739934760294074478422304 (0xA90E05BD89468CDDA61EB93B7DD6E920)
Complete name                            : Love.Victor.S03E01.Sei.Tu.ITA-ENG.1080p.DSNP.WEB-DL.DDP5.1.H.264-gattopollo.mkv
Format                                   : Matroska
Format version                           : Version 4
File size                                : 1.36 GiB
Duration                                 : 33 min 18 s
Overall bit rate mode                    : Variable
Overall bit rate                         : 5 826 kb/s
Encoded date                             : UTC 2022-06-15 16:11:52
Writing application                      : mkvmerge v68.0.0 ('The Curtain&#39 64-bit
Writing library                          : libebml v1.4.2 + libmatroska v1.6.4

Video
ID                                       : 1
Format                                   : AVC
Format/Info                              : Advanced Video Codec
Format profile                           : [email protected]
Format settings                          : CABAC / 4 Ref Frames
Format settings, CABAC                   : Yes
Format settings, Reference frames        : 4 frames
Codec ID                                 : V_MPEG4/ISO/AVC
Duration                                 : 33 min 18 s
Bit rate mode                            : Variable
Bit rate                                 : 5 309 kb/s
Maximum bit rate                         : 12.7 Mb/s
Width                                    : 1 920 pixels
Height                                   : 1 080 pixels
Display aspect ratio                     : 16:9
Frame rate mode                          : Constant
Frame rate                               : 23.976 (24000/1001) FPS
Color space                              : YUV
Chroma subsampling                       : 4:2:0
Bit depth                                : 8 bits
Scan type                                : Progressive
Bits/(Pixel*Frame)                       : 0.107
Stream size                              : 1.24 GiB (91%)
Language                                 : English
Default                                  : Yes
Forced                                   : No
Color range                              : Limited
Color primaries                          : BT.709
Transfer characteristics                 : BT.709
Matrix coefficients                      : BT.709

Audio #1
ID                                       : 2
Format                                   : E-AC-3
Format/Info                              : Enhanced AC-3
Commercial name                          : Dolby Digital Plus
Codec ID                                 : A_EAC3
Duration                                 : 33 min 18 s
Bit rate mode                            : Constant
Bit rate                                 : 256 kb/s
Channel(s)                               : 6 channels
Channel layout                           : L R C LFE Ls Rs
Sampling rate                            : 48.0 kHz
Frame rate                               : 31.250 FPS (1536 SPF)
Compression mode                         : Lossy
Stream size                              : 61.0 MiB (4%)
Language                                 : Italian
Service kind                             : Complete Main
Default                                  : Yes
Forced                                   : No

Audio #2
ID                                       : 3
Format                                   : E-AC-3
Format/Info                              : Enhanced AC-3
Commercial name                          : Dolby Digital Plus
Codec ID                                 : A_EAC3
Duration                                 : 33 min 18 s
Bit rate mode                            : Constant
Bit rate                                 : 256 kb/s
Channel(s)                               : 6 channels
Channel layout                           : L R C LFE Ls Rs
Sampling rate                            : 48.0 kHz
Frame rate                               : 31.250 FPS (1536 SPF)
Compression mode                         : Lossy
Stream size                              : 61.0 MiB (4%)
Language                                 : English
Service kind                             : Complete Main
Default                                  : No
Forced                                   : No

Text #1
ID                                       : 4
Format                                   : UTF-8
Codec ID                                 : S_TEXT/UTF8
Codec ID/Info                            : UTF-8 Plain Text
Duration                                 : 33 min 5 s
Bit rate                                 : 72 b/s
Count of elements                        : 535
Stream size                              : 17.5 KiB (0%)
Title                                    : SDH
Language                                 : English
Default                                  : No
Forced                                   : No

Text #2
ID                                       : 5
Format                                   : UTF-8
Codec ID                                 : S_TEXT/UTF8
Codec ID/Info                            : UTF-8 Plain Text
Duration                                 : 31 min 58 s
Bit rate                                 : 62 b/s
Count of elements                        : 498
Stream size                              : 14.6 KiB (0%)
Language                                 : Czech
Default                                  : No
Forced                                   : No

Text #3
ID                                       : 6
Format                                   : UTF-8
Codec ID                                 : S_TEXT/UTF8
Codec ID/Info                            : UTF-8 Plain Text
Duration                                 : 31 min 58 s
Bit rate                                 : 72 b/s
Count of elements                        : 494
Stream size                              : 16.9 KiB (0%)
Language                                 : Danish
Default                                  : No
Forced                                   : No

Text #4
ID                                       : 7
Format                                   : UTF-8
Codec ID                                 : S_TEXT/UTF8
Codec ID/Info                            : UTF-8 Plain Text
Duration                                 : 31 min 58 s
Bit rate                                 : 70 b/s
Count of elements                        : 487
Stream size                              : 16.4 KiB (0%)
Language                                 : German
Default                                  : No
Forced                                   : No

Text #5
ID                                       : 8
Format                                   : UTF-8
Codec ID                                 : S_TEXT/UTF8
Codec ID/Info                            : UTF-8 Plain Text
Duration                                 : 33 min 7 s
Bit rate                                 : 108 b/s
Count of elements                        : 499
Stream size                              : 26.4 KiB (0%)
Language                                 : Greek
Default                                  : No
Forced                                   : No

Text #6
ID                                       : 9
Format                                   : UTF-8
Codec ID                                 : S_TEXT/UTF8
Codec ID/Info                            : UTF-8 Plain Text
Duration                                 : 31 min 58 s
Bit rate                                 : 69 b/s
Count of elements                        : 498
Stream size                              : 16.4 KiB (0%)
Title                                    : Latin America
Language                                 : Spanish
Default                                  : No
Forced                                   : No

Text #7
ID                                       : 10
Format                                   : UTF-8
Codec ID                                 : S_TEXT/UTF8
Codec ID/Info                            : UTF-8 Plain Text
Duration                                 : 31 min 58 s
Bit rate                                 : 68 b/s
Count of elements                        : 498
Stream size                              : 16.0 KiB (0%)
Language                                 : Spanish
Default                                  : No
Forced                                   : No

Text #8
ID                                       : 11
Format                                   : UTF-8
Codec ID                                 : S_TEXT/UTF8
Codec ID/Info                            : UTF-8 Plain Text
Duration                                 : 31 min 58 s
Bit rate                                 : 65 b/s
Count of elements                        : 497
Stream size                              : 15.5 KiB (0%)
Language                                 : Finnish
Default                                  : No
Forced                                   : No

Text #9
ID                                       : 12
Format                                   : UTF-8
Codec ID                                 : S_TEXT/UTF8
Codec ID/Info                            : UTF-8 Plain Text
Duration                                 : 31 min 58 s
Bit rate                                 : 72 b/s
Count of elements                        : 495
Stream size                              : 17.1 KiB (0%)
Language                                 : French
Default                                  : No
Forced                                   : No

Text #10
ID                                       : 13
Format                                   : UTF-8
Codec ID                                 : S_TEXT/UTF8
Codec ID/Info                            : UTF-8 Plain Text
Duration                                 : 31 min 58 s
Bit rate                                 : 62 b/s
Count of elements                        : 494
Stream size                              : 14.6 KiB (0%)
Language                                 : Hungarian
Default                                  : No
Forced                                   : No

Text #11
ID                                       : 14
Format                                   : UTF-8
Codec ID                                 : S_TEXT/UTF8
Codec ID/Info                            : UTF-8 Plain Text
Duration                                 : 31 min 58 s
Bit rate                                 : 67 b/s
Count of elements                        : 494
Stream size                              : 15.7 KiB (0%)
Language                                 : Italian
Default                                  : No
Forced                                   : No

Text #12
ID                                       : 15
Format                                   : UTF-8
Codec ID                                 : S_TEXT/UTF8
Codec ID/Info                            : UTF-8 Plain Text
Duration                                 : 33 min 9 s
Bit rate                                 : 54 b/s
Count of elements                        : 484
Stream size                              : 13.3 KiB (0%)
Language                                 : Japanese
Default                                  : No
Forced                                   : No

Text #13
ID                                       : 16
Format                                   : UTF-8
Codec ID                                 : S_TEXT/UTF8
Codec ID/Info                            : UTF-8 Plain Text
Duration                                 : 31 min 58 s
Bit rate                                 : 73 b/s
Count of elements                        : 495
Stream size                              : 17.2 KiB (0%)
Language                                 : Korean
Default                                  : No
Forced                                   : No

Text #14
ID                                       : 17
Format                                   : UTF-8
Codec ID                                 : S_TEXT/UTF8
Codec ID/Info                            : UTF-8 Plain Text
Duration                                 : 33 min 7 s
Bit rate                                 : 61 b/s
Count of elements                        : 402
Stream size                              : 14.9 KiB (0%)
Language                                 : Dutch
Default                                  : No
Forced                                   : No

Text #15
ID                                       : 18
Format                                   : UTF-8
Codec ID                                 : S_TEXT/UTF8
Codec ID/Info                            : UTF-8 Plain Text
Duration                                 : 31 min 58 s
Bit rate                                 : 67 b/s
Count of elements                        : 498
Stream size                              : 15.9 KiB (0%)
Language                                 : Norwegian
Default                                  : No
Forced                                   : No

Text #16
ID                                       : 19
Format                                   : UTF-8
Codec ID                                 : S_TEXT/UTF8
Codec ID/Info                            : UTF-8 Plain Text
Duration                                 : 33 min 7 s
Bit rate                                 : 62 b/s
Count of elements                        : 489
Stream size                              : 15.1 KiB (0%)
Language                                 : Polish
Default                                  : No
Forced                                   : No

Text #17
ID                                       : 20
Format                                   : UTF-8
Codec ID                                 : S_TEXT/UTF8
Codec ID/Info                            : UTF-8 Plain Text
Duration                                 : 31 min 58 s
Bit rate                                 : 65 b/s
Count of elements                        : 498
Stream size                              : 15.4 KiB (0%)
Title                                    : Brazil
Language                                 : Portuguese
Default                                  : No
Forced                                   : No

Text #18
ID                                       : 21
Format                                   : UTF-8
Codec ID                                 : S_TEXT/UTF8
Codec ID/Info                            : UTF-8 Plain Text
Duration                                 : 31 min 58 s
Bit rate                                 : 68 b/s
Count of elements                        : 497
Stream size                              : 15.9 KiB (0%)
Language                                 : Portuguese
Default                                  : No
Forced                                   : No

Text #19
ID                                       : 22
Format                                   : UTF-8
Codec ID                                 : S_TEXT/UTF8
Codec ID/Info                            : UTF-8 Plain Text
Duration                                 : 33 min 7 s
Bit rate                                 : 68 b/s
Count of elements                        : 499
Stream size                              : 16.7 KiB (0%)
Language                                 : Romanian
Default                                  : No
Forced                                   : No

Text #20
ID                                       : 23
Format                                   : UTF-8
Codec ID                                 : S_TEXT/UTF8
Codec ID/Info                            : UTF-8 Plain Text
Duration                                 : 33 min 7 s
Bit rate                                 : 67 b/s
Count of elements                        : 499
Stream size                              : 16.4 KiB (0%)
Language                                 : Swedish
Default                                  : No
Forced                                   : No

Text #21
ID                                       : 24
Format                                   : UTF-8
Codec ID                                 : S_TEXT/UTF8
Codec ID/Info                            : UTF-8 Plain Text
Duration                                 : 31 min 58 s
Bit rate                                 : 70 b/s
Count of elements                        : 498
Stream size                              : 16.6 KiB (0%)
Language                                 : Turkish
Default                                  : No
Forced                                   : No

Text #22
ID                                       : 25
Format                                   : UTF-8
Codec ID                                 : S_TEXT/UTF8
Codec ID/Info                            : UTF-8 Plain Text
Duration                                 : 31 min 58 s
Bit rate                                 : 64 b/s
Count of elements                        : 499
Stream size                              : 15.0 KiB (0%)
Title                                    : Hong Kong
Language                                 : Chinese
Default                                  : No
Forced                                   : No

Text #23
ID                                       : 26
Format                                   : UTF-8
Codec ID                                 : S_TEXT/UTF8
Codec ID/Info                            : UTF-8 Plain Text
Duration                                 : 31 min 58 s
Bit rate                                 : 63 b/s
Count of elements                        : 499
Stream size                              : 14.8 KiB (0%)
Title                                    : Simplified
Language                                 : Chinese
Default                                  : No
Forced                                   : No

Text #24
ID                                       : 27
Format                                   : UTF-8
Codec ID                                 : S_TEXT/UTF8
Codec ID/Info                            : UTF-8 Plain Text
Duration                                 : 31 min 58 s
Bit rate                                 : 64 b/s
Count of elements                        : 499
Stream size                              : 15.2 KiB (0%)
Title                                    : Traditional
Language                                 : Chinese
Default                                  : No
Forced                                   : No

Menu
00:00:04.004                             : en:Recap
00:02:10.881                             : en:Scene 1
00:05:50.017                             : en:Intro
00:06:06.074                             : en:Scene 2
00:32:58.979                             : en:Credits





.:[center][color=red][b].:: TITOLO ::.[/center]

[center]Love.Victor.S03.ITA-ENG.1080p.DSNP.WEB-DL.DDP5.1.H.264-gattopollo[/center]

[center][/center]

[center].:: INFO SERIE ::.[/center]

[center]
Genere: Drammatico , Commedia, Sentimentale
Nazionalità: Eng
Anno: 2022
Durata: 33 min
Stagione: 3
Episodi: 8
IMDb


.:: TRAMA ::.


Segui la storia di Victor, un nuovo studente alla Creekwood High School che si trova nel viaggio alla scoperta di sé per affrontare le sfide a casa e lottare con il suo orientamento sessuale.




.:: SCREENSHOT ::.

 [/center]


[center].:: INFO TECNICHE ::.

Sorgente Video: DSNP
Sorgente Audio:  DSNP
Risoluzione: 1920x1080, H.264
Audio 1: ITA E-AC3  6ch @256Kb/s
Audio 2: ENG E-AC3 6ch @256kb/s
Sottotitoli: ITA FULL, ENG SDH, etc



.:: MEDIAINFO ::.


Code

General
Unique ID                                : 224712339872325739934760294074478422304 (0xA90E05BD89468CDDA61EB93B7DD6E920)
Complete name                            : Love.Victor.S03E01.Sei.Tu.ITA-ENG.1080p.DSNP.WEB-DL.DDP5.1.H.264-gattopollo.mkv
Format                                   : Matroska
Format version                           : Version 4
File size                                : 1.36 GiB
Duration                                 : 33 min 18 s
Overall bit rate mode                    : Variable
Overall bit rate                         : 5 826 kb/s
Encoded date                             : UTC 2022-06-15 16:11:52
Writing application                      : mkvmerge v68.0.0 ('The Curtain&#39 64-bit
Writing library                          : libebml v1.4.2 + libmatroska v1.6.4

Video
ID                                       : 1
Format                                   : AVC
Format/Info                              : Advanced Video Codec
Format profile                           : [email protected]
Format settings                          : CABAC / 4 Ref Frames
Format settings, CABAC                   : Yes
Format settings, Reference frames        : 4 frames
Codec ID                                 : V_MPEG4/ISO/AVC
Duration                                 : 33 min 18 s
Bit rate mode                            : Variable
Bit rate                                 : 5 309 kb/s
Maximum bit rate                         : 12.7 Mb/s
Width                                    : 1 920 pixels
Height                                   : 1 080 pixels
Display aspect ratio                     : 16:9
Frame rate mode                          : Constant
Frame rate                               : 23.976 (24000/1001) FPS
Color space                              : YUV
Chroma subsampling                       : 4:2:0
Bit depth                                : 8 bits
Scan type                                : Progressive
Bits/(Pixel*Frame)                       : 0.107
Stream size                              : 1.24 GiB (91%)
Language                                 : English
Default                                  : Yes
Forced                                   : No
Color range                              : Limited
Color primaries                          : BT.709
Transfer characteristics                 : BT.709
Matrix coefficients                      : BT.709

Audio #1
ID                                       : 2
Format                                   : E-AC-3
Format/Info                              : Enhanced AC-3
Commercial name                          : Dolby Digital Plus
Codec ID                                 : A_EAC3
Duration                                 : 33 min 18 s
Bit rate mode                            : Constant
Bit rate                                 : 256 kb/s
Channel(s)                               : 6 channels
Channel layout                           : L R C LFE Ls Rs
Sampling rate                            : 48.0 kHz
Frame rate                               : 31.250 FPS (1536 SPF)
Compression mode                         : Lossy
Stream size                              : 61.0 MiB (4%)
Language                                 : Italian
Service kind                             : Complete Main
Default                                  : Yes
Forced                                   : No

Audio #2
ID                                       : 3
Format                                   : E-AC-3
Format/Info                              : Enhanced AC-3
Commercial name                          : Dolby Digital Plus
Codec ID                                 : A_EAC3
Duration                                 : 33 min 18 s
Bit rate mode                            : Constant
Bit rate                                 : 256 kb/s
Channel(s)                               : 6 channels
Channel layout                           : L R C LFE Ls Rs
Sampling rate                            : 48.0 kHz
Frame rate                               : 31.250 FPS (1536 SPF)
Compression mode                         : Lossy
Stream size                              : 61.0 MiB (4%)
Language                                 : English
Service kind                             : Complete Main
Default                                  : No
Forced                                   : No

Text #1
ID                                       : 4
Format                                   : UTF-8
Codec ID                                 : S_TEXT/UTF8
Codec ID/Info                            : UTF-8 Plain Text
Duration                                 : 33 min 5 s
Bit rate                                 : 72 b/s
Count of elements                        : 535
Stream size                              : 17.5 KiB (0%)
Title                                    : SDH
Language                                 : English
Default                                  : No
Forced                                   : No

Text #2
ID                                       : 5
Format                                   : UTF-8
Codec ID                                 : S_TEXT/UTF8
Codec ID/Info                            : UTF-8 Plain Text
Duration                                 : 31 min 58 s
Bit rate                                 : 62 b/s
Count of elements                        : 498
Stream size                              : 14.6 KiB (0%)
Language                                 : Czech
Default                                  : No
Forced                                   : No

Text #3
ID                                       : 6
Format                                   : UTF-8
Codec ID                                 : S_TEXT/UTF8
Codec ID/Info                            : UTF-8 Plain Text
Duration                                 : 31 min 58 s
Bit rate                                 : 72 b/s
Count of elements                        : 494
Stream size                              : 16.9 KiB (0%)
Language                                 : Danish
Default                                  : No
Forced                                   : No

Text #4
ID                                       : 7
Format                                   : UTF-8
Codec ID                                 : S_TEXT/UTF8
Codec ID/Info                            : UTF-8 Plain Text
Duration                                 : 31 min 58 s
Bit rate                                 : 70 b/s
Count of elements                        : 487
Stream size                              : 16.4 KiB (0%)
Language                                 : German
Default                                  : No
Forced                                   : No

Text #5
ID                                       : 8
Format                                   : UTF-8
Codec ID                                 : S_TEXT/UTF8
Codec ID/Info                            : UTF-8 Plain Text
Duration                                 : 33 min 7 s
Bit rate                                 : 108 b/s
Count of elements                        : 499
Stream size                              : 26.4 KiB (0%)
Language                                 : Greek
Default                                  : No
Forced                                   : No

Text #6
ID                                       : 9
Format                                   : UTF-8
Codec ID                                 : S_TEXT/UTF8
Codec ID/Info                            : UTF-8 Plain Text
Duration                                 : 31 min 58 s
Bit rate                                 : 69 b/s
Count of elements                        : 498
Stream size                              : 16.4 KiB (0%)
Title                                    : Latin America
Language                                 : Spanish
Default                                  : No
Forced                                   : No

Text #7
ID                                       : 10
Format                                   : UTF-8
Codec ID                                 : S_TEXT/UTF8
Codec ID/Info                            : UTF-8 Plain Text
Duration                                 : 31 min 58 s
Bit rate                                 : 68 b/s
Count of elements                        : 498
Stream size                              : 16.0 KiB (0%)
Language                                 : Spanish
Default                                  : No
Forced                                   : No

Text #8
ID                                       : 11
Format                                   : UTF-8
Codec ID                                 : S_TEXT/UTF8
Codec ID/Info                            : UTF-8 Plain Text
Duration                                 : 31 min 58 s
Bit rate                                 : 65 b/s
Count of elements                        : 497
Stream size                              : 15.5 KiB (0%)
Language                                 : Finnish
Default                                  : No
Forced                                   : No

Text #9
ID                                       : 12
Format                                   : UTF-8
Codec ID                                 : S_TEXT/UTF8
Codec ID/Info                            : UTF-8 Plain Text
Duration                                 : 31 min 58 s
Bit rate                                 : 72 b/s
Count of elements                        : 495
Stream size                              : 17.1 KiB (0%)
Language                                 : French
Default                                  : No
Forced                                   : No

Text #10
ID                                       : 13
Format                                   : UTF-8
Codec ID                                 : S_TEXT/UTF8
Codec ID/Info                            : UTF-8 Plain Text
Duration                                 : 31 min 58 s
Bit rate                                 : 62 b/s
Count of elements                        : 494
Stream size                              : 14.6 KiB (0%)
Language                                 : Hungarian
Default                                  : No
Forced                                   : No

Text #11
ID                                       : 14
Format                                   : UTF-8
Codec ID                                 : S_TEXT/UTF8
Codec ID/Info                            : UTF-8 Plain Text
Duration                                 : 31 min 58 s
Bit rate                                 : 67 b/s
Count of elements                        : 494
Stream size                              : 15.7 KiB (0%)
Language                                 : Italian
Default                                  : No
Forced                                   : No

Text #12
ID                                       : 15
Format                                   : UTF-8
Codec ID                                 : S_TEXT/UTF8
Codec ID/Info                            : UTF-8 Plain Text
Duration                                 : 33 min 9 s
Bit rate                                 : 54 b/s
Count of elements                        : 484
Stream size                              : 13.3 KiB (0%)
Language                                 : Japanese
Default                                  : No
Forced                                   : No

Text #13
ID                                       : 16
Format                                   : UTF-8
Codec ID                                 : S_TEXT/UTF8
Codec ID/Info                            : UTF-8 Plain Text
Duration                                 : 31 min 58 s
Bit rate                                 : 73 b/s
Count of elements                        : 495
Stream size                              : 17.2 KiB (0%)
Language                                 : Korean
Default                                  : No
Forced                                   : No

Text #14
ID                                       : 17
Format                                   : UTF-8
Codec ID                                 : S_TEXT/UTF8
Codec ID/Info                            : UTF-8 Plain Text
Duration                                 : 33 min 7 s
Bit rate                                 : 61 b/s
Count of elements                        : 402
Stream size                              : 14.9 KiB (0%)
Language                                 : Dutch
Default                                  : No
Forced                                   : No

Text #15
ID                                       : 18
Format                                   : UTF-8
Codec ID                                 : S_TEXT/UTF8
Codec ID/Info                            : UTF-8 Plain Text
Duration                                 : 31 min 58 s
Bit rate                                 : 67 b/s
Count of elements                        : 498
Stream size                              : 15.9 KiB (0%)
Language                                 : Norwegian
Default                                  : No
Forced                                   : No

Text #16
ID                                       : 19
Format                                   : UTF-8
Codec ID                                 : S_TEXT/UTF8
Codec ID/Info                            : UTF-8 Plain Text
Duration                                 : 33 min 7 s
Bit rate                                 : 62 b/s
Count of elements                        : 489
Stream size                              : 15.1 KiB (0%)
Language                                 : Polish
Default                                  : No
Forced                                   : No

Text #17
ID                                       : 20
Format                                   : UTF-8
Codec ID                                 : S_TEXT/UTF8
Codec ID/Info                            : UTF-8 Plain Text
Duration                                 : 31 min 58 s
Bit rate                                 : 65 b/s
Count of elements                        : 498
Stream size                              : 15.4 KiB (0%)
Title                                    : Brazil
Language                                 : Portuguese
Default                                  : No
Forced                                   : No

Text #18
ID                                       : 21
Format                                   : UTF-8
Codec ID                                 : S_TEXT/UTF8
Codec ID/Info                            : UTF-8 Plain Text
Duration                                 : 31 min 58 s
Bit rate                                 : 68 b/s
Count of elements                        : 497
Stream size                              : 15.9 KiB (0%)
Language                                 : Portuguese
Default                                  : No
Forced                                   : No

Text #19
ID                                       : 22
Format                                   : UTF-8
Codec ID                                 : S_TEXT/UTF8
Codec ID/Info                            : UTF-8 Plain Text
Duration                                 : 33 min 7 s
Bit rate                                 : 68 b/s
Count of elements                        : 499
Stream size                              : 16.7 KiB (0%)
Language                                 : Romanian
Default                                  : No
Forced                                   : No

Text #20
ID                                       : 23
Format                                   : UTF-8
Codec ID                                 : S_TEXT/UTF8
Codec ID/Info                            : UTF-8 Plain Text
Duration                                 : 33 min 7 s
Bit rate                                 : 67 b/s
Count of elements                        : 499
Stream size                              : 16.4 KiB (0%)
Language                                 : Swedish
Default                                  : No
Forced                                   : No

Text #21
ID                                       : 24
Format                                   : UTF-8
Codec ID                                 : S_TEXT/UTF8
Codec ID/Info                            : UTF-8 Plain Text
Duration                                 : 31 min 58 s
Bit rate                                 : 70 b/s
Count of elements                        : 498
Stream size                              : 16.6 KiB (0%)
Language                                 : Turkish
Default                                  : No
Forced                                   : No

Text #22
ID                                       : 25
Format                                   : UTF-8
Codec ID                                 : S_TEXT/UTF8
Codec ID/Info                            : UTF-8 Plain Text
Duration                                 : 31 min 58 s
Bit rate                                 : 64 b/s
Count of elements                        : 499
Stream size                              : 15.0 KiB (0%)
Title                                    : Hong Kong
Language                                 : Chinese
Default                                  : No
Forced                                   : No

Text #23
ID                                       : 26
Format                                   : UTF-8
Codec ID                                 : S_TEXT/UTF8
Codec ID/Info                            : UTF-8 Plain Text
Duration                                 : 31 min 58 s
Bit rate                                 : 63 b/s
Count of elements                        : 499
Stream size                              : 14.8 KiB (0%)
Title                                    : Simplified
Language                                 : Chinese
Default                                  : No
Forced                                   : No

Text #24
ID                                       : 27
Format                                   : UTF-8
Codec ID                                 : S_TEXT/UTF8
Codec ID/Info                            : UTF-8 Plain Text
Duration                                 : 31 min 58 s
Bit rate                                 : 64 b/s
Count of elements                        : 499
Stream size                              : 15.2 KiB (0%)
Title                                    : Traditional
Language                                 : Chinese
Default                                  : No
Forced                                   : No

Menu
00:00:04.004                             : en:Recap
00:02:10.881                             : en:Scene 1
00:05:50.017                             : en:Intro
00:06:06.074                             : en:Scene 2
00:32:58.979                             : en:Credits





.:: TORRENT LINK ::.




[/center]
: TORRENT LINK ::.[/b][/color]




[/center]



[center]
Titolo Originale: Obi-Wan.Kenobi.
Anno: 2022
Stagione: 01
Episodi: 6
Durata: 50 min (episodio)
Genere: Drama, Sci-Fi & Fantasy, Action & Adventure
Network:  Disney+
Interpreti e personaggi
• Ewan McGregor Obi-Wan Kenobi
• Hayden Christensen Anakin Skywalker / Darth Vader
• Joel Edgerton Owen Lars
• Bonnie Piesse Beru Lars
• Rupert Friend Grand Inquisitor
• Moses Ingram Inquisitor Reva
• Sung Kang Fifth Brother


Trama:
Durante il regno dell'Impero, Obi-Wan Kenobi si imbarca in una missione cruciale.




 
[/center]

[center]
Sorgente Video: WEB-DL Disney
Sorgente Audio: Disney
Risoluzione: 3840x2160, x265
Audio 1:  ITA E-AC-3 @256 kb/s
Audio 2: ENG E-AC-3 JOC @768 kb/s
Sottotitoli:  ITA FORCED, ITA FULL, ENG FULL[/center]

Code

Obi-Wan.Kenobi.S01E01.Parte.I.iTALiAN.MULTi.HDR.2160p.WEB.h265-MeM.GP.mkv
Formato                                 : Matroska
Versione formato                        : Version 4
Dimensione                              : 6,02 GiB
Durata                                  : 52 min 28s
Bitrate totale                          : 16,4 Mb/s
Data codifica                           : UTC 2022-05-27 08:08:32
Creato con                              : mkvmerge v65.0.0 ('Too Much&#39 64-bit
Compressore                             : libebml v1.4.2 + libmatroska v1.6.4

Video
ID                                      : 1
Formato                                 : HEVC
Formato/Informazioni                    : High Efficiency Video Coding
Profilo formato                         : Main [email protected]@High
HDR format                              : SMPTE ST 2086, HDR10 compatible
ID codec                                : V_MPEGH/ISO/HEVC
Durata                                  : 52 min 28s
Bitrate                                 : 15,4 Mb/s
Larghezza                               : 3.840 pixel
Altezza                                 : 2.160 pixel
Rapporto aspetto visualizzazione        : 16:9
Modalità frame rate                     : Costante
Frame rate                              : 24,000 FPS
Spazio colore                           : YUV
Croma subsampling                       : 4:2:0
Profondità bit                          : 10 bit
Bit/(pixel*frame)                       : 0.077
Dimensione della traccia                : 5,65 GiB (94%)
Lingua                                  : Inglese
Default                                 : Si
Forced                                  : No
Color range                             : Limited
Colori primari                          : BT.2020
Caratteristiche trasferimento           : PQ
Coefficienti matrici                    : BT.2020 non-constant
Mastering display color primaries       : BT.2020
Mastering display luminance             : min: 0.0000 cd/m2, max: 1000 cd/m2

Audio #1
ID                                      : 2
Formato                                 : E-AC-3
Formato/Informazioni                    : Enhanced AC-3
Nome commereciale                       : Dolby Digital Plus
ID codec                                : A_EAC3
Durata                                  : 52 min 28s
Modalità bitrate                        : Costante
Bitrate                                 : 256 kb/s
Canali                                  : 6 canali
Channel layout                          : L R C LFE Ls Rs
Frequenza campionamento                 : 48,0 kHz
Frame rate                              : 31,250 FPS (1536 SPF)
Modo compressione                       : Con perdita
Dimensione della traccia                : 96,1MiB (2%)
Titolo                                  : ITA
Lingua                                  : Italiano
Service kind                            : Complete Main
Default                                 : Si
Forced                                  : No

Audio #2
ID                                      : 3
Formato                                 : E-AC-3 JOC
Formato/Informazioni                    : Enhanced AC-3 with
Info: Per scaricare devi usare un client come uTorrent o Transmission
AnnounceURL
udp://tracker.opentrackr.org:1337/announce
Hash e644b2671ebe2e17697d3ddb42fc785f839e1b62
Peers seeds: 19 , leech: 34
Size 9.69 GB
Completato 99x
Aggiunto 16.06.22 - 12:06:46
Uploader   ppb1
Votazione (Voti: 0)


Condividi questo bittorrent:


html/blog:


bbcode/forum: