* Dettagli Torrent   globale  | Commenti (0) 


- Il boia scarlatto - Bloody Pit of Horror (1965) 1080p h264 Ac3 Ita Eng Sub Eng-MIRCrew -


Download via torrent:
Categoria bittorrent BDRip
Descrizione
Il boia scarlatto - Bloody Pit of Horror (1965) 1080p h264 Ac3 Ita Eng Sub Eng-MIRCrew





NO FOUND ONLY ORIGINAL RELEASE

My release is always in double track audio italian and Original audio
for select it use VLC or dvd player home
not use wmp


Il boia scarlatto - Bloody Pit of Horror (1965)

Quality MIRCrew in HD 1080p da 1,8 gb









Titolo originale Il boia scarlatto
Paese di produzione Italia, Stati Uniti d'America
Anno 1965
Durata 87 min
Genere orrore
Regia Max Hunter (Massimo Pupillo)
Soggetto Roberto Natale,
Romano Migliorini
Sceneggiatura Roberto Natale,
Romano Migliorini
Fotografia Luciano Trasatti
Montaggio Mariano Arditi
Effetti speciali Carlo Rambaldi
Musiche Gino Peguri
Scenografia Frank Arnold





   Mickey Hargitay: Travis Anderson
   Walter Brandt (Walter Brandi): Rick
   Louise Barrett (Luisa Baratto): Edith
   Rita Klein: Nancy
   Alfred Rice (Alfredo Rizzo): Daniel Parks
   Barbara Nelly (Barbara Nelli): Suzy
   Moa Tahi: Kinojo
   Femi Martin (Femi Benussi): Annie
   Ralph Zucker: fotografo Dermott
   Nik Angel (Nando Angelini): Perry
   Albert Gordon:
   John Turner (Gino Turini):
   Robert Messenger (Roberto Messina):





Per realizzare un servizio fotografico per le copertine delle sue pubblicazioni, un editore di romanzi gialli si reca con una troupe e alcune modelle presso un castello abitato solo da un attore in pensione che, escluse due guardie del corpo factotum, vive isolato dal mondo.



A photographer and models go to an abandoned castle to shoot some sexy covers for horror novels. Unbeknownst to them, the castle is inhabited by a lunatic who believes himself to be the reincarnated spirit of a 17th century executioner.















[spoiler]

General

Complete name                            : Il boia scarlatto - Bloody Pit of Horror (1965) 1080p h264 Ac3 Ita Eng Sub Eng-MIRCrew.mkv
Format                                   : Matroska
Format version                           : Version 2
File size                                : 1.80 GiB
Duration                                 : 1h 26mn
Overall bit rate                         : 2 986 Kbps
Movie name                               : MIRCrew
Encoded date                             : UTC 2022-04-25T13:10:37Z
Writing application                      : mkvmerge v5.8.0 ('No Sleep / Pillow&#39 built on Sep  2 2012 15:37:04
Writing library                          : Lavf55.12.0

Video
ID                                       : 1
Format                                   : AVC
Format/Info                              : Advanced Video Codec
Format profile                           : [email protected]
Format settings, CABAC                   : Yes
Format settings, ReFrames                : 4 frames
Codec ID                                 : V_MPEG4/ISO/AVC
Duration                                 : 1h 26mn
Bit rate                                 : 2 600 Kbps
Width                                    : 1 888 pixels
Height                                   : 1 024 pixels
Display aspect ratio                     : 16:9
Frame rate                               : 23.976 fps
Color space                              : YUV
Chroma subsampling                       : 4:2:0
Bit depth                                : 8 bits
Scan type                                : Progressive
Bits/(Pixel*Frame)                       : 0.056
Stream size                              : 1.54 GiB (85%)
Title                                    : MIRCrew
Writing library                          : x264 core 142 r2479 dd79a61
Encoding settings                        : cabac=1 / ref=1 / deblock=1:0:0
Language                                 : Italian
Default                                  : Yes
Forced                                   : No
Color primaries                          : BT.709-5, BT.1361, IEC 61966-2-4, SMPTE RP177
Transfer characteristics                 : BT.709-5, BT.1361
Matrix coefficients                      : BT.709-5, BT.1361, IEC 61966-2-4 709, SMPTE RP177

Audio #1
ID                                       : 2
Format                                   : AC-3
Format/Info                              : Audio Coding 3
Mode extension                           : CM (complete main)
Codec ID                                 : A_AC3
Duration                                 : 1h 26mn
Bit rate mode                            : Constant
Bit rate                                 : 192 Kbps
Channel(s)                               : 2 channels
Channel positions                        : Front: L R
Sampling rate                            : 48.0 KHz
Bit depth                                : 16 bits
Compression mode                         : Lossy
Delay relative to video                  : -5ms
Stream size                              : 119 MiB (6%)
Title                                    : Ita Ac3 2.0
Language                                 : Italian
Default                                  : Yes
Forced                                   : No

Audio #2
ID                                       : 3
Format                                   : AC-3
Format/Info                              : Audio Coding 3
Mode extension                           : CM (complete main)
Codec ID                                 : A_AC3
Duration                                 : 1h 26mn
Bit rate mode                            : Constant
Bit rate                                 : 192 Kbps
Channel(s)                               : 2 channels
Channel positions                        : Front: L R
Sampling rate                            : 48.0 KHz
Bit depth                                : 16 bits
Compression mode                         : Lossy
Delay relative to video                  : -5ms
Stream size                              : 119 MiB (6%)
Title                                    : Eng Ac3 2.0
Language                                 : English
Default                                  : No
Forced                                   : No

Text
ID                                       : 4
Format                                   : PGS
Muxing mode                              : zlib
Codec ID                                 : S_HDMV/PGS
Codec ID/Info                            : The same subtitle format used on BDs/HD-DVDs
Title                                    : Eng
Language                                 : English
Default                                  : No
Forced                                   : No




[/spoiler]





Info: Per scaricare devi usare un client come uTorrent o Transmission
AnnounceURL
udp://tracker.torrent.eu.org:451/announce
Hash 98d9be93b1d58536cbd67b23abd1c1c8fa2b3b4e
Peers seeds: 41 , leech: 12
Size 1.80 GB
Completato 151x
Aggiunto 09.06.22 - 02:06:57
Uploader   robbyrs
Votazione (Voti: 0)


Condividi questo bittorrent:


html/blog:


bbcode/forum: